Programmatically redefine a phrase list. Now you're ready to run the Speech CLI to recognize speech found in the sound file. My problem arises when I try to use HCopy to convert the files to. For each version, the top directory contains a README file, with outline information abut the corpus and a directory, speech. Ultrasonic and ultrasound refer to sound vibrations above 20000Hz. Audio data is virtually impossible for computers to search and analyze. Once done, click the 'Download Audio' button to save the audio file. wav files (other supported formats are *. extract both folders move the dll`s into the folder with the two *. We show that WaveNets are able to generate speech which mimics any human voice and which sounds more natural than the best existing Text-to-Speech systems, reducing the gap with human performance by over 50%. Samples files produced by converting stereo 16-bit data are as follows. Change log. WaveSurfer was developed mainly for use in speech research, but has also proven useful in many other. For most music applications, 44. xml" if you created a new project, add the following markup:. Audio settings on the Apple TV can be adjusted through Apple TV > Settings > Video and Audio > Audio Format. Another way of representing audio data is by converting it into a different domain of data representation, namely the frequency domain. 7442 files, English, 6 emotions, speech, 2443 raters. Clash is intended for audio exploration of all types of media. A more detailed description can be found in the papers associated with the database. LaserDiscs with digital sound have an LPCM track on the digital channel. Funny Graduation Thank You Speech Keywords: Funny Graduation Thank You Speech Created Date: 1/16/2014 4:13:08 PM. Text2Speech. This site is an archive only website. Speech on House Passage of Health Care Reform Bill: mp3: PDF: 23 Mar 2010: Speech on Signing Health Care Reform Bill into Law: mp3: PDF: 28 Mar 2010: Speech to U. Sample wav file speech 48khz. British Library Sounds allows you to listen to a selection from the Library’s collections of unique sound and moving image recordings. MP4 and OGG are container formats, which can contain audio streams of different formats, as well as video streams, metadata and for example subtitles. 23 MB) The file was synthesized programatically using a C# application (to be posted). TIP: This is a great extension that will read any web-based text. Text to speech Pyttsx text to speech. Or you can drag and drop your. Support multi-channel LADSPA plugins and optional latency compensation. 3 8 30 Part of H. Pc Says I Love You: Public Domain Chipmunks Sound. The site also includes transcripts so you can check your work! Learn Out Loud is another site with audio files of speeches. 7 seconds, the preprocessing part ignores longer samples during the training. Text to Speech. Under Advanced Settings for Studio 192 properties in Windows, there is an option to set the sample rate for each of the WDM Assigned Outputs. 75k bps GSM AMR 5. A sound engineer has chosen to record the background audio for an upcoming movie in stereo. Step 1: Add Text View. 1 KHz, or 32KHz, each with 32 to 320 kbps. 48 kHz is common when creating music or other audio for video. Best audio file formats. 1 kHz is the best sample rate to go for. wav file as some echo problem A Looking for a Text to speech software TTS that output. An audio file with a sample rate of 44. Sounds are databased by type, including movies, tv, effects. The Object Audio dialog box now displays the waveform for the audio file that you imported. For a quick preview of how epic the Cinematic Sound Effects library is, take a listen to some of the included sounds in the audio demo. aax) AAC / M4A FLAC (16 bit) MP3 Ogg Vorbis (Not supported on Clip Sport Plus/Voice/Go) WAV WMA (DRM free). Download the whatstheweatherlike. A rather crude example, but this proves the point that audio data is perfectly recreated. 51 = 4785408 samples = 8138. If no audio is generated then you must check to see if audio is properly initialized on your machine. To convert an audio file using the free Audacity audio editor: Download and install Audacity. Troubleshooting. I have been getting a lot of traffic to my HTML5 sample video files post so I wanted to follow up with a general post that covers a multitude of sample files that are often needed in web development. If you want to use the corresponding sound file you need to create a personal account and purchase it. The Technical Support engineer might ask you to make use of a Cisco utility that allows you to capture the Real Time Protocol (RTP) stream of the problem and convert it to a. 1 Khz/16bit sample rate, But I use my audio interface set on a sample rate of 48Khz/24bit to do both my composition and mixing (mastering). The WAV file has become a standard PC audio file format for everything from system and game sounds to CD quality audio. We were comparing a full-band (24 kHz) input file to a wide-band (8 kHz) result (although both files were sampled at 48 kHz). Click the SPEAK IT symbol in the TOP RIGHT corner of the browser window. This is the old way of creating Text to Speech that doesn’t take advantage of instant inbuilt TTS in modern browsers. All these sound effects are free to download and use. All the files that I have, have two channels. 1kHz or 48Khz sample rate to a 16- or 24-bit mono uncompressed WAV or AIFF file. The material may be copied, downloaded, broadcast, modified, incorporated into web sites or test equipment. As with Meshes or Textures, the workflow for Audio File assets is designed to be smooth and trouble free. WAV files can be directly into your DAW. 5 Speech Files: Microsoft's WAV Format The WAV audio format was developed by Microsoft and has become one of the primary formats of uncompressed audio. Instead of coming with any voices pre-installed, Balabolka uses the system’s voice files to maintain its portability and light weight. We have 1000s of free loops and other audio resources to keep you making music. Hello, I am not sure how to properly contribute this knowledge to GitHub. 48Khz Samples is a new label of samples created by Raul Mezcolanza in collaboration with several artists with the aim to offer quality samples for Techno, Tech-house. The Object Audio dialog box now displays the waveform for the audio file that you imported. A 16-bit or 24-bit audio file would have far less noise on the signal both before and after filtering. Development Tools downloads - Ultra Wave To Text by Ultrashareware Software, Inc. Get Speech Sounds from Soundsnap, the Leading Sound Library for Unlimited SFX Downloads. 0 License , and code samples are licensed under the Apache 2. "outfilename" Name of the output sound file where the resulting sound is saved (in. Powerful real-time speech recognition Automatically transcribe audio from 7 languages in real-time. Here are the facts: 44. Audio files delivered to the Radio Digital Archive (RDA) should be stored in their native format, normally 16 bit 48kHz. Therefore it is not possible to reproduce original WAV sound on a MIDI file EXACTLY. Our sound masking and sound-absorbing solutions can help keep your clients protected and improve the focus and productivity of your employees. Stream the best stories. Mp3 Audio merging and splitting tools for combining your converted files or adding short and long pauses in the speech audio. The files are named so the first element is the subject id of the person who gave the voice command, and the last element indicated repeated commands. LMMS is a free, open source, multiplatform digital audio workstation. The goal of the free audio-project book2 is to encourage people all over the world to learn foreign languages and to increase understanding between countries and cultures. 2k bps GSM AMR 4. The sample size—more accurately, the number of bits used to describe each sample—is called the bit depth or word length. I've set my project to 24 bit, 48KHz. This thesis discusses the challenges of multi-rate systems and the transition from one sample rate to a higher, a lower or an unsynchronized one. This allows for the most reliable streaming experience over Wi-Fi to multiple speakers. As we know, some people have difficulty reading large amounts of text due to dyslexia and other learning disabilities. Manipulating audio files in Matlab. esps , which itself contains a. sound(y,Fs); Section 3: Audio Scaling. Unlike uncompressed files that use a sampling rate and bit depth, DSD files use only 1 bit, but samples that bit 2. pitch or volume of audio files, and each export option is clearly listed. You are free to retry the request until your sample is ready. wav; CantinaBand3. However, the most common type is a lossy audio file. WAV files can store metadata in the INFO chunk, and they also include integrated IFF lists. 48khz 2004-05-10 19:28:35 as xvid 1. Audio Files Included 8732 audio files of urban sounds (see description above) in WAV format. The goal of the free audio-project book2 is to encourage people all over the world to learn foreign languages and to increase understanding between countries and cultures. 00 = 1440000 samples ~ 2250 CDDA sectors File Size : 5. The sample rate determines how many samples per second a digital audio system uses to record the audio signal. 1kHz, PCM-24, Stereo, 1kHz SineWave -16dBFS. If you have audio in MP3 format, use the FFMpeg tool for converting the audio to the desired format. For most music applications, 44. The result is very similar to that of a 24 bit, 96kHz. VOCALOID4 Sequence Files(*. CS 101 - Sample Sound Files Here are some sample sound file that your can use to test your programs BabyElephantWalk60. Synthetic voices have numerous applications in various industries. See section 23 Audio output. All of these files have information chunks at the end of the file after the sampled data. download the files and the dll`s frome here. You can register for free and get limited access to a selection of tracks if you don't want to commit. Consistency of sound production can be often overlooked when creating goals. > Hi everyone,do any of you know where i can get clean speech wav files that > are more than 10 seconds? I need them for testing my speech detection > algorithms. In continuation of a previous contribution Text to Speech in WPF, here is a small sample that will recognize the speech and show the resultant text. wav A 3 second version ; CantinaBand60. Text2Speech. Sample Videos. For example, MP3 files are compressed without affecting the quality of a music or audio file. Lyrebird’s new tech is revolutionary, indeed. 264 Main Profile at 800x600 resolution. They are available in both mp3 and wav format. 82, 737-793. Text to Speech (TTS) Synthesizers. You can then convert to mp3 (or whatever other format may be required) for delivery, keeping the original WAV files intact in case you might need to convert them to a different format later without any. WAV: Also developed by Microsoft, the Waveform Audio File Format is a standard for Windows-based systems and compatible with a variety of software. Note that while the system sounds are located in a special, operating system folder (the Media folder), you can still add your own sound files to the folder's content, and use them as Windows event sounds - just keep in mind that Windows 7 will only let you pick WAV files as system. May i please get the permission to use your audio speeches in my you tube channel These speeches are so positive and energetic, so please allow use of your speeches in my youtube video for some great motivational content. See section 23 Audio output. Let us re-sample it to 8000 Hz since most of the speech-related frequencies are present at 8000 Hz: samples = librosa. Encoding an MP3 file at a flat bit-rate of 320 kbps will create a bitstream that’s about 23 percent the size of an uncompressed CD recording. WAV audio file format). 7442 files, English, 6 emotions, speech, 2443 raters. JPG; PNG; GIF ( New ) SVG ( New ) Any resolution image; Sample Audio. I am working on building a language classifier in speech/audio samples. The espeak program does sound a bit robotic, but its simple enough to build a basic program. Wav File-868kb Duration-0:05 minutes Codec: PCM S16 LE (s16l) Channels: Stereo Sample rate: 44100 Hz Bits per sample: 16 Download Play 2. I tried it with a. 0 License , and code samples are licensed under the Apache 2. 2k bps GSM AMR 4. Call +1 (347) 809-6761. All code and sample files can be found in speech-to-text GitHub repo. Keep in mind though. You can use it side by side with other apps, which allows you to record sound while you continue working on your PC. Make a Free mp3 audio player & embed audio on any website. Read support for Ogg Opus files. 5 minute 37 second audio track? can you help?. WAV files contain a sequence of bits representing the raw audio data, as well as headers with metadata in RIFF (Resource Interchange File Format) format. It incorporates technology from Skype's SILK codec and Xiph. Brought to you by The Bots. For example; in a 2 second audio file, we extract values at half a second. Re: Converting 48khz to 44. The file transcript. Since we are concerned with digital representations of speech and audio signals, we need to consider the spectral properties of speech and audio. wav Use `-h' on `text2wave' to see all options. Our WAV files are original master quality and offer more freedom with regards to file manipulation. Our purpose is to support and develop free, open protocols and software to serve the public, developer and business markets. Some people have basic literary levels. Development Tools downloads - Ultra Wave To Text by Ultrashareware Software, Inc. Our free online audio extractor allows you to extract audio from uploaded video file. 2 kHz, and 176. Klatt's "History of Speech Synthesis" audio files, from Acoustics Today Audio files to accompany the historical review in Klatt (1987) Part A: Development of speech synthesizers. WAV file directly into Flash, and place the sound file on a layer. 4 kHz are sample rates for audio mediums. Sound skips, stammers, or stutters. Text to speech in python Example with espeak. This audio file, however, is only the vowel substrate on which phrase is built. It is widely used in the telecommunications field because it improves the signal-to-noise ratio without increasing the amount of data. All sound files are for educational, research, criticism, or review for movie purchase purposes. Therefore, recorded speech needs to be converted to text before it can be used in applications. A brand new premium sample pack with LoFi MIDI + WAV loops for creating timeless Hip Hop vibes. SOS Technical Editor Hugh Robjohns replies: There's a good reason why the audio files from Final Cut are 48kHz files: anything associated with video must have a sample rate of 48kHz, because there must be an integer number of samples per video frame, and 48kHz is the universal format that allows that at all the common frame rates. The text between the and tags will only be displayed in browsers that do not support the element. Newer computers and audio hardware/software are now accommodating higher sample rates, including 48kHz or 96kHz. 48khz is most likely the highest quality because it means that more samples are being played back. Hold Tight Audio Book Sample Click the link below for the audio version of HOLD TIGHT, Chapter One, as read by Scott brick, who also read the THE WOODS for the audio release. Online Text to speech convert into very natural human-like sounding voices. txt -otype snd -o myfile. 1kHz, 48kHz, 96kHz and 192kHz. Today, the mega-retailer is launching a subscription fitness product dubbed Amazon Halo. I don't know whether it is the cause and how to remove it. Read what is PCM audio, how it works, its sound quality, myth reasons, the term explication, comparison with alternative audio file formats and other in simple words. SSML Support Speech Synthesis Markup Language can be used to gain additional control over the generated speech from the text in your response. The WAV file is a recording of any sound (including speech) and MIDI file is sequence of notes (similar to musical score). A Concerned Voice. Instead of coming with any voices pre-installed, Balabolka uses the system’s voice files to maintain its portability and light weight. 05% of the samples are shorter than 16. SoundCheck includes a built-in tone generator that allows test tones to be generated at a selected frequency and sampling rate. This program allows you to paste in bytes in a textbox and then convert them in to. Subsonic and infrasound refer to sound vibrations below 20Hz. Generating speech If you want a human voice in your project, you can use the free generator at AT&T Text-to-Speech demo page. Some people have basic literary levels. You may also like wedding speech examples & samples. Later Sound Blaster cards were capable of playing back 16-bit audio data. Sample file 44. Bush Public Domain Audio Archive. These are online converters, which means you have to upload the WAV file to the website, have it converted, and then download it back to your computer. Step 1: Add Text View. All AT&T voices included will work with any SAPI 5 compliant application including Zabawares Ultra Hal Assistant 6. The popular. The MovieWavs Page holds no liability from misuse of these sound files. speechDemo_config_spec_params; % Isolated phonemes wav files list , as a cell by get_WavList() function wavname=get_WavList(wavpath); subplot(1,1,1); % Next is shown a sample way to loop over selected phonemes and do some kind of processing after reading % create a list of selected phonemes to process selected_phonindx=[1:length(wavname)]; % in. 48kHz And the 'support' of 24-bit is evidently based on reading the 24-bit files then immediately truncating to 16-bit. Record and play audio from devices, read and write audio files, generate waveforms Audio Toolbox™ enables real-time audio input and output. Recognition; using System. containing human voice/conversation with least amount of background noise/music. Our speech examples are intended then to give you an idea of the tone and content of our work. Try out sample tracks to experience High-Resolution Audio. 05kHz to 44. Free TTS provides free and awesome services to convert written text into natural sounding voice. This example shows how to have audio play as a background whilst text to speech is active. Sound Recorder is an app you can use to record audio for up to three hours per recording file. Q: I need this dog's bark sound smaller on my web site. SoundCheck also provides an audio FX test and a surround sound test to analyse those advanced sound card features. 264 Main Profile at 800x600 resolution. I know on the FAQs there is a section that addresses that people would like to see if DeepSpeech can be used without having to save audio as a. Stereo or mono sound can be recorded and played back at a variety of sample rates and resolutions. Speech quantized to 4 bits/sample. Hold Tight Audio Book Sample Click the link below for the audio version of HOLD TIGHT, Chapter One, as read by Scott brick, who also read the THE WOODS for the audio release. It is used in system and game sounds, CD-quality audio etc. Subsonic and infrasound refer to sound vibrations below 20Hz. The sound files of the atlas can be processed further with different software, for instance you could do a formant analysis of some of the sound files if you wanted to. Here is an example for a program that reads a wave file and copies it into an FLAC file: import soundfile as sf data, samplerate = sf. Sample Rates¶ The files in this section have been prepared by converting a single audio file into different sampling rates defined in MPEG Layer III specification. Every phrase from each major speech has been made into an individual audio file, where the filename is, in most cases, the exact text content of the sample. Part one changes the sample rate of a sinusoidal input from 44. ) Select the text. , write a MATLAB array of speech samples into a. You can use them in your music production!. If you are looking for the Sample WAV audio file for testing your application then you have come to the right place. Unlike our other sections, these sounds won't play online: higher sample rates are not your browser's best friends, and cannot be encoded in the mp3 format either. You may also notice that your DAC or a phone like the LG V30 support files with sample rates up to 384kHz. Rintones in mp3 and wav file format from movies and tv shows. dss ) file format has been around for years, it was developed jointly by Olympus, Phillips and Grundig back in 1994 and by 2005 became the standard for all digital dictation files, back then described as. A more detailed description can be found in the papers associated with the database. Record and play audio from devices, read and write audio files, generate waveforms Audio Toolbox™ enables real-time audio input and output. The George W. Initially a theoretical consideration of Sample Rate Conversion. It has a 'Junk' chunk in the head. snd but these are less popular). So high-resolution audio has a bit depth. That’s overkill. A file with the FSB file extension is an FMOD Sample Bank Format file. I have recently installed the "Uberi" Speech Recognition package. Generating speech If you want a human voice in your project, you can use the free generator at AT&T Text-to-Speech demo page. Each line has the form: start duration channel words. If you use the default Microsoft SAPI 5 ones, it will sound more robotic. wav files available, that are in 32 bit (float), 48KHz. The highest quality being th 16-bit at 44,100 HZ, this highest level is the sampling rate of an audio CD and uses 88KB of storage per second. It’s often requested that users want to create mp3 audio files from text. Python supports many speech recognition engines and APIs, including Google Speech Engine, Google Cloud Speech API, Microsoft Bing Voice Recognition and IBM Speech to Text. It is primarily designed for interactive speech and music transmission over the Internet, but is also applicable to storage and streaming applications. Ultrasonic and ultrasound refer to sound vibrations above 20000Hz. resample(samples, sample_rate, 8000) ipd. Sample Wav File Speech 48khz You can then convert to mp3 (or whatever other format may be required) for delivery, keeping the original WAV files intact in case you might need to. Phrase: "He had a rabbit" (Vowels only) This sample demonstrates increased complexity due to it being a phrase rather than a word. All AT&T voices included will work with any SAPI 5 compliant application including Zabawares Ultra Hal Assistant 6. One to One; Support; Knowledgebase More. Most speech corpora also have additional text files containing transcriptions of the words spoken and the time each word occurred in the recording. Re-sample the saved file to a new rate, return the full path. To actually remove the noise, run SoX again, this time with the noisered effect; noisered will reduce noise according to a noise profile (which was generated by noiseprof), from profile-file, or from stdin if no profile-file or if ‘−’ is given. See Below For Latest. The package javax. mp3) from your computer and click Open. If necessary, choose “Use this device for sound output” from the Action pop-up menu. It is operated in three simple steps. The element allows you to specify alternative audio files which the browser may choose from. We were comparing a full-band (24 kHz) input file to a wide-band (8 kHz) result (although both files were sampled at 48 kHz). It can also save files in several formats, including WAV, AU, and AIFF. See full list on www0. Well, in a nutshell (and according to client. This free kit includes some awesome bass stabs, chords, drums, guitar licks and a few loops to get you started. sample Superceded by G. com is a best place for you. High-resolution audio is defined by certain numbers: the bit depth of files, and their sample rate. These audio pronunciation files are in MP3 format and you can directly access them without even using Google Search. We recommend that you use the mp3 format as the file size is smaller. Tea Break – the sound of a tea cup being stirred Tea. Labels who have taken part include Loopmasters, Artisan Audio, Magix, Prime Loops, Zero-G, Catalyst Samples, Function Loops, King Loops, Mode Audio, 2Deep, and more, with plenty more exciting collaborations to come. This leaves us with 48Kb to encode one second of uncompressed audio, and means that the whole cartridge can barely contain 20 seconds of audio. A Voice file specifies a language (and possibly a language variant or dialect) together with various attributes that affect the characteristics of the voice quality and how the language is spoken. Download the whatstheweatherlike. Skip to content. I often also search for samples when testing and putting together different demos so I think this should be helpful to others. AudioRecorder This is sample code for recording audio from live input and downloading them as WAV files, built on Matt Diamond's excellent RecorderJS. wav file can be attached to the case and assist in the communication of the problem symptom. You can use the System. This sample is presented in XAML/C#. Under Advanced Settings for Studio 192 properties in Windows, there is an option to set the sample rate for each of the WDM Assigned Outputs. wav or other audio files for free. If an audio file is sampled at 48kHz, the highest frequency it can contain is half that value (read up on the Nyquist Theorem if you want to understand why). The following procedure explains how to create an audio file using Text-to-Speech Text-to-Speech The One Call Now tool that converts and synthesizes typed text into verbal format for voice message delivery. Choose your file and click Upload to get started! * Uploaded files are stored in a temporary folder and automatically removed from the server within two hours. SanDisk Clip Sport Plus/Sport/Jam/Voice/Go supported audio/music formats AA / AAX (audible) (Clip Sport Plus/Voice/Go Audible Enhanced Audio. 1 kHz, which means they can reproduce frequencies up to roughly 20 kHz. Phonetic transcription and phonological analysis of a speech sample are an integral part of the assessment process for children presenting with speech sound disorder and inform all aspects of clinical management. Bush Public Domain Audio Archive. 05% of the samples are shorter than 16. The best free text to speech software has a lot of use cases in your computing life. wav or other audio files for free. I have a sound sample, and by applying window length 0. Sounds are categorized by type, including movies, tv, effects. Date - timestamp. You can see the audio track properties of the current file on the left side. Lit2Go; Librivox; Bible; Lean Out Loud; Music. 2k bps GSM AMR 4. How to Transcribe Speech With Otter Have an audio file you want to transcribe into text? Don't do it by yourself; transcription app Otter can help you turn your conversations and interviews into text. Download the whatstheweatherlike. Looking for free music loops, acapellas and vocals, want to hook up with like minded musicians from around the world or just looking to get some feedback on your music. 5 Speech Files: Microsoft's WAV Format The WAV audio format was developed by Microsoft and has become one of the primary formats of uncompressed audio. 23 MB) The file was synthesized programatically using a C# application (to be posted). It is not in Anaconda3 folder. SoundCheck also provides an audio FX test and a surround sound test to analyse those advanced sound card features. After you voice command has been handled, it's common to produce speech as a response back to the user. When we click the button audio file will be created in our root folder with the Korean Language as speech. It is a companding technqiue. Typically more is better and the higher the sample rate the more micro-detail and nuances engineers are able to capture. 1 Khz to 48Khz. Samples files produced by converting stereo 16-bit data are as follows. Now download and run an app like the BitPerfect and make the same test. Convert any English text into MP3 audio file and play it on your PC or iPod. Ronald Reagan - Tear Down This Wall Speech Transcript (partial) Here are some other ideas for practicing your skills. Calls: when browsing the web using the power of sound. We recommend that you use the mp3 format as the file size is smaller. American Rhetoric: Top 100 Speeches of the 20th Century is a great site with mp3 files of famous speeches. Download the whatstheweatherlike. We make use of the Google Speech API because of it’s great quality. fsb file onto fsb_aud_extr. Audio Micro has a whole lot of advantages above others. The code can be divided into 2 main parts: configuring the SpeechRecognitionEngine object (and its required elements) handling the SpeechRecognized and SpeechHypothesized events. Run the Speech CLI. Articulate Storyline 360 allows you to choose the voice and language to convert the script of e-learning courses to smart audio files. Or you can drag and drop your. py) the Model just needs the audio source to be a flattened Numpy Array. Batch processing supports up to 32000 files allowing you to apply effects and/or convert your files as a single function. At times such software is called speech synthesizer. According to MSDN, the API “provides support for initializing and configuring a speech synthesis engine (voice) to convert a text string to an audio stream, also known as text-to-speech (TTS). Welcome speech examples and graduation speech examples are found in the page to help serve as inspiration for any upcoming speech. In this example, we upload the. Any exceptions must be approved by instructor. , write a MATLAB array of speech samples into a. If you want to use the corresponding sound file you need to create a personal account and purchase it. Sample Wav File Speech 48khz You can then convert to mp3 (or whatever other format may be required) for delivery, keeping the original WAV files intact in case you might need to. Re: Converting 48khz to 44. I know on the FAQs there is a section that addresses that people would like to see if DeepSpeech can be used without having to save audio as a. Text; Sample Files. Opus is a totally open, royalty-free, highly versatile audio codec. The lowest note on a piano might be around 50Hz. transforms analog waves into digital bits when you make a sound recording 3. org is a free online text-to-speech converter. Try It Free! Audio files created through this page can be downloaded in the following formats: wav, mp3, ogg, wma, aiff, alaw, ulaw, vox, mp4. 41M Sample Encoding: 16-bit Signed Integer PCM and this is soxi after downsampling. Run the Speech CLI. The free speech loops, samples and sounds listed here have been kindly uploaded by other users. I often also search for samples when testing and putting together different demos so I think this should be helpful to others. Therefore, recorded speech needs to be converted to text before it can be used in applications. We can see there terms like bitstream audio, Dolby Digital, DTS, DSD, TrueHD, mp3, WAV, lossless and many others. > For best sound quality, go for higher sampling frequency (up to a > point) and lower compression ratio. 8 million times a second to recreate the audio file. Sample Wav File Speech 48khz You can then convert to mp3 (or whatever other format may be required) for delivery, keeping the original WAV files intact in case you might need to. So, we are playing 8-bit samples at 48Khz from one megabyte of storage, minus few Kbytes for the actual player code. sound(y,Fs); Section 3: Audio Scaling. Please look at the headers of one of the actual waveform files on Disc 17-2. To preview the stunning and original musical composition that is available in multiple encodings, you can have a listen in the embedded player below. The highest quality being th 16-bit at 44,100 HZ, this highest level is the sampling rate of an audio CD and uses 88KB of storage per second. Wave Audio Joiner is an easy-to-use tool to join many wav files in one wav file. Use your phone’s microphone or plug an external mic into your phone and hit record. I want to start with a quick explanation of the audio sample rate. The material may be copied, downloaded, broadcast, modified, incorporated into web sites or test equipment. Free Wave Samples provides high-quality wav files free for use in your audio projects. For all new purchases go to the new Sounddogs. Sound files and descriptions from Dennis H. What you'll learn. I installed PyAudio recently. With ultra high-resolution files, Play-Fi down-samples the audio to CD quality (16-bit/48kHz) for transmission. wav (RIFF) format and one containing speech files in. , write a MATLAB array of speech samples into a. According to MSDN, the API “provides support for initializing and configuring a speech synthesis engine (voice) to convert a text string to an audio stream, also known as text-to-speech (TTS). Add another HTTP action with a Post; Use the following as URI for the post request. 44,100Hz represents the sample rate, or frequency, of a digital audio file. When you conduct research on speech you can either (1) record your own data or (2) use a ready-made speech corpus. Most speech activity occurs between 100Hz and 8000Hz. Now you're ready to run the Speech CLI to recognize speech found in the sound file. Amazon knows your shopping secrets. 00 = 1440000 samples ~ 2250 CDDA sectors File Size : 5. anon85178 May 19, 2010. Free Wave Samples provides high-quality wav files free for use in your audio projects. Convert your audio files to MP3, WAV, FLAC, OGG and more for free online. See Below For Latest. The files are named so the first element is the subject id of the person who gave the voice command, and the last element indicated repeated commands. At 128 kbps and 44. To convert an audio file using the free Audacity audio editor: Download and install Audacity. As a developer, creating transcriptions of customer service calls or generating subtitles on audio and video content are common challenges requiring speech-to-text capabilities. 0 is coming nearer and nearer i started having a deeper look at how i will encode my movie soundtracks with he-aac. wav is found in 14 folders, but that file is a different speech command in each folder. It corrects pitch, improves volume and makes every file ready to play anywhere - from your iTunes to a festival sound system. Appsloveworld offers you free WAV files for testing OR demo purpose. Your data is encrypted while it’s in storage. ffmpeg -i your_audio_file. Here is an example for a program that reads a wave file and copies it into an FLAC file: import soundfile as sf data, samplerate = sf. wav files (other supported formats are *. The highest quality being th 16-bit at 44,100 HZ, this highest level is the sampling rate of an audio CD and uses 88KB of storage per second. Fandom may earn an affiliate commission on sales made from links on this page. Place the audio file and the program in the same folder for convenience. Please consider AmazingMIDI as an assistant of transcription. Our speech examples are intended then to give you an idea of the tone and content of our work. It can also save files in several formats, including WAV, AU, and AIFF. The sound files of the atlas can be processed further with different software, for instance you could do a formant analysis of some of the sound files if you wanted to. The espeak program does sound a bit robotic, but its simple enough to build a basic program. and saving it the Audio Library as well as your computer. They often get frustrated trying to browse the internet because so much of it is in text form or on other hand some people prefer to listen or watch a news article (or something like this. This presents a problem where you will not be able to pass audio to outputs with a different sample rate from the output that is set as the default. 1 percent of an uncompressed CD recording. Our customers use Transcribe in 3 different ways: 1. uncompressed file. Each file is available in MP3, WAV, REX2 and AIF formats. The repository has only just begun with basic WAV files encoded with PCM 8 bit, 16 bit and 24 bit plus IEEE float all at several sample rates and in mono and stereo. Mp3 previews are low resolution, the purchased WAV files are professional quality, the same sound effects used in hundreds of Hollywood feature films. The Simpson's wav files. If it does not play, see the Help for your operating system. Audio(samples, rate=8000) Now, let’s understand the number of recordings for each voice command:. Unlike our other sections, these sounds won't play online: higher sample rates are not your browser's best friends, and cannot be encoded in the mp3 format either. We convert almost any form of audio to text, such as voice to text, speech to text, and MP3 to text. Ultimately, companies marketing 24-bit audio have far more to gain in profit than you do in superior playback quality. The file sizes also tend to be smaller, which may be a factor when sharing audio files with collaborators over the Internet or saving space on your hard drive. Transcribe large audio files using…. I guess if you use 48kHz sample rate there might be some people with super hearing that might be able to hear that effect but they are probably very few. All the files that I have, have two channels. Here’s the basic steps that I outlined in the video above, available here for easy reference! Download + install the free trial of Audio Hijack Pro (Mac only- Windows users see notes below) Under “Quick Record” select “System Audio” for your input; Create a custom recording format (WAV, 44. Also see: Cloud Speech API with Google Service Account. aax) (Clip Sport/Jam Format 4 and Audible Enhanced Audio. wav is the processed version of pzm12. dss (Digital Speech Standard) = MP3 for Speech. Phrase: "He had a rabbit" (Vowels only) This sample demonstrates increased complexity due to it being a phrase rather than a word. Just enter your text, select one of the voices and download or listen to the resulting mp3 file. For example; in a 2 second audio file, we extract values at half a second. extract both folders move the dll`s into the folder with the two *. 1: ITU-T: Dual rate speech coder for multimedia communications transmitting at 5. wav or speech. The Cloud Speech API lets you do speech to text transcription from audio files in over 80 languages. WAV files are the most common standard for recording audio in a Windows environment. 1 channels of 24-bit, 48KHz audio. High-resolution audio is defined by certain numbers: the bit depth of files, and their sample rate. This is the bitstream above multiplexed with an explanatory graphic encoded in H. Audio Quality is the accuracy and enjoyability of the audio which the user can listen from an electronic device. We can also direct play the audio from the saved mp3 format file in our root folder. It’s a standard PC audio file format. If you use the default Microsoft SAPI 5 ones, it will sound more robotic. Online Text to speech convert into very natural human-like sounding voices. Audio Trimmer is a simple online tool which lets you trim your audio files on the fly. You can play any Audio File, as long as Android supports it. It is primarily designed for interactive speech and music transmission over the Internet, but is also applicable to storage and streaming applications. wav or other audio files for free. The text to synthesize can be specified in plain text, or in SSML. Download Sample VOCALOID Sequence Files and Audio Files! The samples are supplied as VOCALOID4 Sequence files and WAV files. See full list on www0. If you’ve looked at your music player’s information tab, you may notice some of your songs have sample rates of 44. According to the site, “the filename is, in most cases, the exact text content of the sample. Text To Speech WAV is a handy text to speech utility that converts any text to WAV audio format, according to user defined bit rates. txt contains a human-generated transcript of the speech in the meeting. 48 kHz is common when creating music or other audio for video. Record and play audio from devices, read and write audio files, generate waveforms Audio Toolbox™ enables real-time audio input and output. Audio quality depends upon the bit rate, sample rate, file format and encoded method…. High-quality WAV files have an audio bitrate exactly the same as CDs at 1,411 kbps at 16 bit. At its highest sample rate each second of audio is made up of 48,000 samples. To actually remove the noise, run SoX again, this time with the noisered effect; noisered will reduce noise according to a noise profile (which was generated by noiseprof), from profile-file, or from stdin if no profile-file or if ‘−’ is given. If the Fs variable is not defined or included in the command, it will assume the default sample rate of 8192 Hz. The best text to speech apps will provide a seamless audio experience for converting text. We can see there terms like bitstream audio, Dolby Digital, DTS, DSD, TrueHD, mp3, WAV, lossless and many others. Free Wave Samples provides high-quality wav files free for use in your audio projects. I've set my project to 24 bit, 48KHz. This blog talks about the features of the Text-to-Speech in Articulate Storyline 360. Speech-enabled webmail client, e. A Voice file specifies a language (and possibly a language variant or dialect) together with various attributes that affect the characteristics of the voice quality and how the language is spoken. All of these files have information chunks at the end of the file after the sampled data. Voice files are placed in the espeak-data/voices directory, or within subdirectories in there. , if you are testing OEPocketsphinxController on an iPhone 5 with the internal microphone, make a recording on an iPhone 5 with the internal microphone, for instance using Apple's Voice Memos app) and then convert the resulting file to a 16-bit, 16000 sample rate, mono WAV file. Hold Tight Audio Book Sample Click the link below for the audio version of HOLD TIGHT, Chapter One, as read by Scott brick, who also read the THE WOODS for the audio release. Amazon knows your shopping secrets. Well, we were talking about standards, and actually 48k IS a standard for video audio. It uses SSE instructions if they are available on your system. I couldn't find where I installed it. 1 kHz to 48 kHz. Using the Amazon Transcribe API, you can analyze audio files stored in Amazon Simple Storage Service (S3) and have the service return a text file of the transcribed speech. Both file formats offer uncompressed high-quality audio files. Used primarily in PCs, the Wave file format can also be used on other computer platforms, such as Mac. The wave files with which I make my drum loops are mostly (~all) recorded at 44. WAV audio file format). MP3 Tag Editor also allows you to create playlists, rename files, organize folders, export data to different formats, and more. Subsonic and infrasound refer to sound vibrations below 20Hz. For CD recordings, the industry standard is to store each audio sample (an individual audio datapoint relating to air pressure) as a 16-bit value, at 44100 samples per second. Our WAV files are original master quality and offer more freedom with regards to file manipulation. Speex PC Encoding Utility for recording and encoding speech through a PC with output files generated for program memory, data EEPROM or RAM Audio bandwidth: 0-8 kHz with sampling rate of up to 16 kHz Multiple encoders and/or decoders can be instantiated Full-duplex and half-duplex operations. 44,100Hz represents the sample rate, or frequency, of a digital audio file. wav file to the same directory as the Speech CLI binary file. Mu-law coding is a form of compression for audio signals including speech. To preview the stunning and original musical composition that is available in multiple encodings, you can have a listen in the embedded player below. 3 Getting some help. uncompressed file. Create sample-based music, beats, soundtracks, or ringtones! Total Free Wave Samples: 2178. This thesis discusses the challenges of multi-rate systems and the transition from one sample rate to a higher, a lower or an unsynchronized one. Here are the facts: 44. The result is very similar to that of a 24 bit, 96kHz. It incorporates both audio and video encoding at a range of data rates. Sample Files from CopyAudio. Sennheiser's gaming brand is offering a small amp/DAC combo that promises to take your audio to the next level. This pack contains 20 ALL-ORIGINAL samples created from scratch. transforms digital bits into analog waves when you play a digital audio file 2. Unity can import almost every common file format but there are a few details that are useful to be aware of when working with Audio Files. All files are mono, sampled at 44100Hz, 16-bit. wav (RIFF) format and one containing speech files in. Your data is encrypted while it’s in storage. This Windows application will allow you to convert the sampling rate of any audio file and listen to the original and resulting files from within the application. The only difference between a raw file and a WAV file is the header. So if you resampled to 16kHz, any frequencies above 8kHz in the original file could appear "aliased" as lower frequency noises in the resampled file. This demo lets you play with a few common effects on the audio inputs. We have selected the Locale as “ko-KR” and entered text to save as speech audio. Platinum Notes uses studio filters to process your files. Speech on House Passage of Health Care Reform Bill: mp3: PDF: 23 Mar 2010: Speech on Signing Health Care Reform Bill into Law: mp3: PDF: 28 Mar 2010: Speech to U. You can also use Open from library, Add Files to Playlist, Add Folder to Playlist button (2) on the toolbar to add a file to the playlist. Try out sample tracks to experience High-Resolution Audio. If you need to test how the audio file behaves in your app, just choose the size of the. 41M Sample Encoding: 16-bit Signed Integer PCM and this is soxi after downsampling. WAV file extension, 8- or 16-bit samples can be taken at rates of 11,025 Hz, 22,050 Hz and 44,100 Hz. > Up to a point, indeed. wav file as input. Wave Audio Joiner is an easy-to-use tool to join many wav files in one wav file. Can’t change sample rate with Focusrite Scarlett 8i6 gen 3; Studio 1824C, PC, in the UC, I can't change the Sample Rate from 44. I have recently installed the "Uberi" Speech Recognition package. WAV files may contain audio recordings with different sampling rates and bitrates but are often saved in a 44. WaveSurfer is a sound application built using Snack. Audio Data Rate = Bit Depth x Sampling Frequency. For this quickstart, you can use a WAV file (16kHz or 8kHz, 16-bit, and mono PCM) that contains English speech. Our free online audio extractor allows you to extract audio from uploaded video file. A Concerned Voice. EXAMPLE: Age: 3 Years, 2 Months 2. I installed PyAudio recently. So high-resolution audio has a bit depth. Since Unity 5. Sound files WaveSurfer can read a number of sound file formats including WAV, AU, AIFF, MP3, CSL, and SD. Cognitive Services API to convert Speech Audio to text-Now that we have the supported format (WAV) of the audio file, thanks to FFMpeg, we will call the Speech Services and pass our audio in order to receive a text response in exchange. Labels who have taken part include Loopmasters, Artisan Audio, Magix, Prime Loops, Zero-G, Catalyst Samples, Function Loops, King Loops, Mode Audio, 2Deep, and more, with plenty more exciting collaborations to come. Learn More Now. Have students open the file using Kami. This will result in higher quality. Real Audio Files 1 (. wav' from wavsource. Unlike other applications of its kind, it also allows saving an audio file of the text to speech playback. wav file named "test. Speech recognition is the process of converting spoken words to text. It has a 'Junk' chunk in the head. wav (47 kB) WAVE file, stereo A. Part one changes the sample rate of a sinusoidal input from 44. 41M Sample Encoding: 16-bit Signed Integer PCM and this is soxi after downsampling. It incorporates both audio and video encoding at a range of data rates. If you want to use the corresponding sound file you need to create a personal account and purchase it. Choose your file and click Upload to get started! * Uploaded files are stored in a temporary folder and automatically removed from the server within two hours. If it does not play, see the Help for your operating system. SampleSwap. Now you're ready to run the Speech CLI to recognize speech found in the sound file. The example has two parts. Our WAV files are original master quality and offer more freedom with regards to file manipulation. Use basic controls like play, pause, and stop. resample(samples, sample_rate, 8000) ipd. As previously discussed, most digital audio files will share several attributes that describe the properties of the recorded sound. The espeak program does sound a bit robotic, but its simple enough to build a basic program. Your data is encrypted while it’s in storage. Division by 1048576 converts from bits to. If you are looking for the Sample WAV audio file for testing your application then you have come to the right place. This is useful if you want to embed sound files into your code. Digital audio is music, speech, and other sounds represented in binary format for use in digital devices How is Audio recorded? To digitally record sound samples of a sound wave are collected at periodic intervals and stored as numeric data in an audio file. My test with IR LV2 convolution plugin have proven, that this sample has absolutely flat frequency response - convolved signal was identical to the source signal. Using the. SoundFile can open all file formats that libsndfile supports, for example WAV, FLAC, OGG and MAT files (see Known Issues below about writing OGG files). Payments safety. American Rhetoric; History of Politics Outloud; History Chanel Speeches; Great American Speeches; Speeches and Speechmakers; Historical Voices; Audio Books & Short Stories. 3 8 30 Part of H. The highest quality being th 16-bit at 44,100 HZ, this highest level is the sampling rate of an audio CD and uses 88KB of storage per second. The free speech loops, samples and sounds listed here have been kindly uploaded by other users. * is a part of Java Sound API which contains interfaces and classes that are dedicated for processing sampled audio by Java programming language. wav files (other supported formats are *. Files that are labelled Full Permission have been recorded by our staff and released without any conditions except that you can't sell or redistribute them. Speex PC Encoding Utility for recording and encoding speech through a PC with output files generated for program memory, data EEPROM or RAM Audio bandwidth: 0-8 kHz with sampling rate of up to 16 kHz Multiple encoders and/or decoders can be instantiated Full-duplex and half-duplex operations. The browser will use the first recognized format. Files up to 16-bit/48 kHz (CD Quality) are streamed with bit-for-bit accuracy, with zero compression or transcoding. The example has two parts. For CD recordings, the industry standard is to store each audio sample (an individual audio datapoint relating to air pressure) as a 16-bit value, at 44100 samples per second. Best audio formats are those that do NOT use compression or have lossless compression. The result is very similar to that of a 24 bit, 96kHz. 08x its original speed/pitch. 48Khz Samples is a new label of samples created by Raul Mezcolanza in collaboration with several artists with the aim to offer quality samples for Techno, Tech-house. The files are named so the first element is the subject id of the person who gave the voice command, and the last element indicated repeated commands. Files are available in 24 bit FLAC, 16 bit FLAC and Apple Lossless (ALAC) format. Well, in a nutshell (and according to client. Date - timestamp. In Critical Listening mode. Is there a rule or some guidelines about which combination to use? Thanks for any help. The element allows you to specify alternative audio files which the browser may choose from. The file sizes also tend to be smaller, which may be a factor when sharing audio files with collaborators over the Internet or saving space on your hard drive. Appsloveworld offers you free WAV files for testing OR demo purpose. The keyboard’s dictation support uses speech recognition to translate audio content into text. Text to Speech. Using the. After you voice command has been handled, it's common to produce speech as a response back to the user. Whether it is an MP3 file or WAV file. , if you are testing OEPocketsphinxController on an iPhone 5 with the internal microphone, make a recording on an iPhone 5 with the internal microphone, for instance using Apple's Voice Memos app) and then convert the resulting file to a 16-bit, 16000 sample rate, mono WAV file. Commented: Natalie Phillips on 24 Mar 2019 Accepted Answer: Wayne King. This sample is presented in XAML/C#. When you conduct research on speech you can either (1) record your own data or (2) use a ready-made speech corpus. Our speech examples are intended then to give you an idea of the tone and content of our work. wav files available, that are in 32 bit (float), 48KHz. AudioFormat; namespace SampleRecognition { class Program { static bool completed; static void Main(string[] args) // Initialize an in-process speech recognition engine. In this tutorial we will use Google Speech Recognition Engine with Python. This is the standard for audio CDs, as it is slightly more than double the sample rate of analog sound, which typically maxes out at around 20,000Hz. 1kHz, which we recommend if your target media is an audio CD. We can also direct play the audio from the saved mp3 format file in our root folder. Deemph can now be used at 48kHz sample rates. Analyzing the Noisy Speech “Real Graph ” Using the Hanning Time Window The noisy speech data of the 221 half-overlapped data buffers contain 28,446 samples; the transformation of the 28,446 samples from time domain to frequency domain using FFT would take a very long time for the computer to process and compute the spectrum. AudioRecorder This is sample code for recording audio from live input and downloading them as WAV files, built on Matt Diamond's excellent RecorderJS. 1kHz to 48kHz resampling project so far has proven to be a little more difficult, namely, I believe because of the large interpolation and decimation factors and long filters required. To enable you to sample on your Walkman, the same track is available in High-Resolution Audio and a widely used compressed audio format. It is primarily designed for interactive speech and music transmission over the Internet, but is also applicable to storage and streaming applications. Parts sound like wideband (~white) noise in the background of the signal. For CD-quality audio use 16-bit i. A 16-bit or 24-bit audio file would have far less noise on the signal both before and after filtering. Increase your productivity & save mountains of time when converting your interviews, audio notes, lectures, speeches, podcasts and any recorded speech to text. dct" files using the audio compression manager including PCM, GSM, ADPCM, CELP, SBC, TrueSpeech and MPEG Layer-3. A rather crude example, but this proves the point that audio data is perfectly recreated. It is operated in three simple steps. At 128 kbps and 44.